<?xml version="1.0" standalone="no"?>
<!DOCTYPE svg PUBLIC "-//W3C//DTD SVG 1.1//EN" "http://www.w3.org/Graphics/SVG/1.1/DTD/svg11.dtd" >
<svg xmlns="http://www.w3.org/2000/svg">
<metadata>Generated by IcoMoon</metadata>
<defs>
<font id="icomoon" horiz-adv-x="1024">
<font-face units-per-em="1024" ascent="960" descent="-64" />
<missing-glyph horiz-adv-x="1024" />
<glyph unicode="&#x20;" horiz-adv-x="512" d="" />
<glyph unicode="&#xe900;" glyph-name="info-solid" d="M512 960c-282.77 0-512-229.23-512-512s229.23-512 512-512c282.77 0 512 229.23 512 512v0c0 282.77-229.23 512-512 512v0zM426.823 743.822c2.623 43.149 36.944 77.495 79.843 80.144l0.242 0.012h10.183c44.959-2.726 80.388-39.854 80.388-85.257 0-47.168-38.237-85.404-85.404-85.404s-85.404 38.237-85.404 85.404c0 1.794 0.055 3.576 0.164 5.343l-0.012-0.242zM682.667 149.333h-298.667c-23.564 0-42.667 19.103-42.667 42.667s19.103 42.667 42.667 42.667v0h85.333v256h-42.667c-23.564 0-42.667 19.103-42.667 42.667s19.103 42.667 42.667 42.667v0h170.667v-341.333h85.333c23.564 0 42.667-19.103 42.667-42.667s-19.103-42.667-42.667-42.667v0z" />
<glyph unicode="&#xe901;" glyph-name="chevron-left" horiz-adv-x="577" d="M511.951-47.032c-17.050 0.081-32.392 7.323-43.188 18.869l-0.031 0.034-437.622 437.65c-11.563 10.811-18.8 26.126-18.902 43.131v0.019c0.387 17.851 7.515 33.965 18.93 45.962l-0.027-0.029 437.622 437.65c11.371 11.672 27.241 18.912 44.803 18.912 0.393 0 0.784-0.004 1.175-0.011l-0.059 0.001c0.631 0.026 1.372 0.041 2.117 0.041 16.418 0 31.127-7.319 41.042-18.872l0.061-0.072c10.222-11.654 17.067-26.502 18.871-42.868l0.031-0.352c0.142-1.39 0.222-3.004 0.222-4.637 0-15.688-7.452-29.636-19.009-38.497l-0.116-0.085-394.389-394.361 394.389-394.431c11.672-11.371 18.913-27.242 18.913-44.803 0-0.397-0.004-0.794-0.011-1.19l0.001 0.059c0.026-0.631 0.041-1.372 0.041-2.117 0-16.418-7.319-31.127-18.872-41.042l-0.072-0.061c-12.273-10.846-28.191-17.822-45.705-18.892l-0.215-0.010z" />
<glyph unicode="&#xe902;" glyph-name="checkmark-outline" horiz-adv-x="1364" d="M498.229-64c-24.504 0.079-46.557 10.51-62.024 27.148l-0.048 0.053-413.123 439.566c-14.274 15.184-23.045 35.686-23.045 58.237 0 47.004 38.104 85.108 85.108 85.108 24.453 0 46.498-10.313 62.022-26.827l0.041-0.044 350.293-373.156 715.038 782.112c15.714 19.502 39.596 31.874 66.367 31.874 46.961 0 85.030-38.069 85.030-85.030 0-23.808-9.784-45.33-25.551-60.765l-0.015-0.015-777.092-850.208c-15.394-17.008-37.45-27.739-62.017-28.052l-0.056-0.001z" />
<glyph unicode="&#xe903;" glyph-name="forward" horiz-adv-x="1023" d="M514.29 943.132c17.052-0.085 32.396-7.33 43.19-18.881l0.032-0.034 437.618-437.618c11.585-10.826 18.831-26.169 18.915-43.206v-0.015c-0.394-17.848-7.526-33.958-18.942-45.952l0.027 0.028-437.618-437.589c-11.38-11.68-27.263-18.925-44.838-18.925-0.382 0-0.763 0.003-1.143 0.010l0.057-0.001c-0.631-0.026-1.372-0.041-2.116-0.041-16.422 0-31.133 7.324-41.045 18.884l-0.061 0.073c-10.227 11.653-17.077 26.502-18.884 42.869l-0.032 0.352c-0.141 1.388-0.221 2.998-0.221 4.628 0 15.694 7.457 29.647 19.021 38.508l0.116 0.085 394.382 394.382-394.382 394.396c-11.68 11.38-18.925 27.263-18.925 44.838 0 0.392 0.004 0.783 0.011 1.173l-0.001-0.059c-0.026 0.631-0.041 1.372-0.041 2.116 0 16.422 7.324 31.133 18.884 41.045l0.073 0.061c12.277 10.836 28.197 17.802 45.711 18.863l0.213 0.010zM68.878 943.132c17.052-0.085 32.396-7.33 43.19-18.881l0.032-0.034 437.618-437.618c11.585-10.826 18.831-26.169 18.915-43.206v-0.015c-0.394-17.848-7.526-33.958-18.942-45.952l0.027 0.028-437.618-437.589c-11.38-11.68-27.263-18.925-44.838-18.925-0.382 0-0.763 0.003-1.143 0.010l0.057-0.001c-0.631-0.026-1.372-0.041-2.116-0.041-16.422 0-31.133 7.324-41.045 18.884l-0.061 0.073c-10.227 11.653-17.077 26.502-18.884 42.869l-0.032 0.352c-0.141 1.388-0.221 2.998-0.221 4.628 0 15.694 7.457 29.647 19.021 38.508l0.116 0.085 394.382 394.382-394.382 394.396c-11.68 11.38-18.925 27.263-18.925 44.838 0 0.392 0.004 0.783 0.011 1.173l-0.001-0.059c-0.026 0.631-0.041 1.372-0.041 2.116 0 16.422 7.324 31.133 18.884 41.045l0.073 0.061c12.277 10.836 28.197 17.802 45.711 18.863l0.213 0.010z" />
<glyph unicode="&#xe904;" glyph-name="external-link-alt" d="M819.2 508.416c-28.277 0-51.2-22.923-51.2-51.2v0-367.616c0-28.277-22.923-51.2-51.2-51.2h-563.2c-28.277 0-51.2 22.923-51.2 51.2v0 563.2c0 28.277 22.923 51.2 51.2 51.2h367.616c28.277 0 51.2 22.923 51.2 51.2s-22.923 51.2-51.2 51.2h-367.616c-84.831 0-153.6-68.769-153.6-153.6v0-563.2c0-84.831 68.769-153.6 153.6-153.6h563.2c84.831 0 153.6 68.769 153.6 153.6v0 367.616c0 28.277-22.923 51.2-51.2 51.2v0zM1019.904 928.256c-8 18.577-26.013 31.414-47.062 31.743l-0.042 0.001h-307.2c-28.277 0-51.2-22.923-51.2-51.2s22.923-51.2 51.2-51.2v0h183.808l-527.36-526.848c-9.571-9.346-15.506-22.378-15.506-36.796 0-28.395 23.019-51.413 51.413-51.413 14.418 0 27.451 5.935 36.787 15.496l526.858 527.37v-183.808c0-28.277 22.923-51.2 51.2-51.2s51.2 22.923 51.2 51.2v0 307.2c-0.088 7.047-1.586 13.722-4.224 19.787l0.128-0.331z" />
<glyph unicode="&#xe905;" glyph-name="facebook-square" d="M832 960c0.816 0.013 1.779 0.020 2.744 0.020 52.15 0 99.26-21.578 132.889-56.292l0.047-0.049c34.762-33.643 56.342-80.725 56.342-132.847 0-0.996-0.008-1.99-0.024-2.983l0.002 0.15v-640c-0.162-105.974-86.026-191.838-191.984-192h-125.342v396.658h132.665l19.996 154.681h-152.661v98.617c-0.153 1.914-0.24 4.145-0.24 6.396 0 18.612 5.953 35.833 16.058 49.865l-0.174-0.253q15.644 18.66 61.013 18.66l81.38 0.711v137.956c-31.33 3.894-67.591 6.116-104.371 6.116-5.028 0-10.046-0.042-15.054-0.124l0.755 0.010q-90.681 0-145.067-53.333t-54.329-150.67v-114.005h-133.319v-154.624h133.348v-396.658h-354.674c-0.816-0.013-1.779-0.020-2.744-0.020-52.15 0-99.26 21.578-132.889 56.292l-0.047 0.049c-34.762 33.643-56.342 80.725-56.342 132.847 0 0.996 0.008 1.99 0.024 2.983l-0.002-0.15v640c-0.013 0.816-0.020 1.779-0.020 2.744 0 52.15 21.578 99.26 56.292 132.889l0.049 0.047c33.643 34.762 80.725 56.342 132.847 56.342 0.996 0 1.99-0.008 2.983-0.024l-0.15 0.002z" />
<glyph unicode="&#xe906;" glyph-name="phone" d="M782.108 320.717c-70.502 6.416-108.968-89.735-160.237-115.369-83.333-44.867-237.155 115.369-237.155 115.369s-160.265 153.835-121.799 237.126c32.050 51.212 128.201 89.735 121.785 160.237-6.416 64.143-147.42 294.882-217.936 230.796-153.835-141.018-166.653-198.703-166.653-314.087-6.402-198.703 249.986-448.675 249.986-448.675 25.606-25.606 249.986-256.388 448.689-249.986 115.369 0 173.068 12.803 314.072 166.653 64.044 70.516-160.251 211.52-230.753 217.936z" />
<glyph unicode="&#xe907;" glyph-name="map-marker-outline" horiz-adv-x="715" d="M665.998 784.043c-63.807 105.829-178.137 175.513-308.743 175.513s-244.937-69.684-307.84-173.901l-0.903-1.612c-30.443-50.269-48.457-111.010-48.457-175.957s18.015-125.688 49.32-177.496l-0.863 1.539 282.027-480.996c5.588-9.064 15.461-15.015 26.724-15.015s21.136 5.951 26.646 14.88l0.077 0.135 282.027 480.996c30.443 50.269 48.457 111.010 48.457 175.957s-18.015 125.688-49.32 177.496l0.863-1.539zM612.551 463.374l-255.716-435.769-255.701 435.769c-25.018 41.347-39.821 91.3-39.821 144.711s14.804 103.363 40.532 145.979l-0.71-1.268c51.855 87.676 145.919 145.552 253.501 145.552 1.063 0 2.126-0.006 3.186-0.017l-0.162 0.001c0.799 0.008 1.744 0.012 2.69 0.012 107.445 0 201.368-57.891 252.28-144.183l0.745-1.365c25.018-41.347 39.821-91.3 39.821-144.711s-14.804-103.363-40.532-145.979l0.71 1.268zM361.771 803.769c-0.486 0.005-1.061 0.008-1.636 0.008-87.187 0-157.867-70.679-157.867-157.867s70.679-157.867 157.867-157.867c87.184 0 157.862 70.674 157.867 157.858v0.001c0 0.002 0 0.005 0 0.008 0 86.612-69.75 156.934-156.144 157.857l-0.087 0.001zM361.771 549.703c-0.735-0.020-1.6-0.032-2.468-0.032-53.147 0-96.231 43.084-96.231 96.231 0 52.279 41.689 94.821 93.636 96.196l0.127 0.003c0.249 0.002 0.544 0.004 0.839 0.004 53.462 0 96.909-42.875 97.834-96.116l0.001-0.087c0-0.009 0-0.020 0-0.031 0-52.264-41.679-94.794-93.612-96.165l-0.127-0.003z" />
<glyph unicode="&#xe908;" glyph-name="star-solid" horiz-adv-x="1071" d="M536.007 960c-0.049 0-0.106 0-0.163 0-19.72 0-36.796-11.318-45.088-27.813l-0.132-0.29-138.325-280.178-309.077-45.44c-24.5-3.723-43.056-24.639-43.056-49.89 0-14.024 5.724-26.711 14.963-35.852l0.004-0.004 223.289-217.6-52.622-307.612c-0.499-2.665-0.785-5.731-0.785-8.863 0-27.853 22.579-50.432 50.432-50.432 8.73 0 16.942 2.218 24.103 6.122l-0.264-0.132 276.722 145.564 276.622-145.522c6.897-3.772 15.109-5.99 23.839-5.99 27.853 0 50.432 22.579 50.432 50.432 0 3.132-0.286 6.198-0.832 9.173l0.047-0.31-52.594 307.57 222.606 217.6c9.248 9.146 14.975 21.836 14.975 35.863 0 25.233-18.531 46.137-42.726 49.847l-0.281 0.035-309.12 45.383-138.325 280.178c-8.323 16.64-25.138 27.918-44.611 28.16h-0.032z" />
<glyph unicode="&#xe909;" glyph-name="arrow_back" d="M854 468.667v-84h-520l238-240-60-60-342 342 342 342 60-60-238-240h520z" />
<glyph unicode="&#xe90a;" glyph-name="checkbox-checked-filled" d="M938.667 960h-853.333c-47.128 0-85.333-38.205-85.333-85.333v0-853.333c0-47.128 38.205-85.333 85.333-85.333v0h853.333c47.128 0 85.333 38.205 85.333 85.333v0 853.333c0 47.128-38.205 85.333-85.333 85.333v0zM426.667 213.333l-213.333 211.513 67.854 65.82 145.479-142.748 316.117 313.415 67.883-67.285z" />
<glyph unicode="&#xe90b;" glyph-name="previous" horiz-adv-x="1023" d="M508.302-47.132c-17.052 0.085-32.396 7.33-43.19 18.881l-0.032 0.034-437.618 437.618c-11.585 10.826-18.831 26.169-18.915 43.206v0.015c0.394 17.848 7.526 33.958 18.942 45.952l-0.027-0.028 437.618 437.589c11.38 11.68 27.263 18.925 44.838 18.925 0.382 0 0.763-0.003 1.143-0.010l-0.057 0.001c0.631 0.026 1.372 0.041 2.116 0.041 16.422 0 31.133-7.324 41.045-18.884l0.061-0.073c10.227-11.653 17.077-26.502 18.884-42.869l0.032-0.352c0.141-1.388 0.221-2.998 0.221-4.628 0-15.694-7.457-29.647-19.021-38.508l-0.116-0.085-394.382-394.382 394.382-394.396c11.68-11.38 18.925-27.263 18.925-44.838 0-0.392-0.004-0.783-0.011-1.173l0.001 0.059c0.026-0.631 0.041-1.372 0.041-2.116 0-16.422-7.324-31.133-18.884-41.045l-0.073-0.061c-12.277-10.836-28.197-17.802-45.711-18.863l-0.213-0.010zM953.714-47.132c-17.052 0.085-32.396 7.33-43.19 18.881l-0.032 0.034-437.618 437.618c-11.585 10.826-18.831 26.169-18.915 43.206v0.015c0.394 17.848 7.526 33.958 18.942 45.952l-0.027-0.028 437.618 437.589c11.38 11.68 27.263 18.925 44.838 18.925 0.382 0 0.763-0.003 1.143-0.010l-0.057 0.001c0.631 0.026 1.372 0.041 2.116 0.041 16.422 0 31.133-7.324 41.045-18.884l0.061-0.073c10.227-11.653 17.077-26.502 18.884-42.869l0.032-0.352c0.141-1.388 0.221-2.998 0.221-4.628 0-15.694-7.457-29.647-19.021-38.508l-0.116-0.085-394.382-394.382 394.382-394.396c11.68-11.38 18.925-27.263 18.925-44.838 0-0.392-0.004-0.783-0.011-1.173l0.001 0.059c0.026-0.631 0.041-1.372 0.041-2.116 0-16.422-7.324-31.133-18.884-41.045l-0.073-0.061c-12.277-10.836-28.197-17.802-45.711-18.863l-0.213-0.010z" />
<glyph unicode="&#xe90c;" glyph-name="logout" d="M170 724.667v-596h342v-86h-342q-34 0-59 26t-25 60v596q0 34 25 60t59 26h342v-86h-342zM726 640.667l212-214-212-214-60 62 110 110h-434v84h434l-110 112z" />
<glyph unicode="&#xe90d;" glyph-name="globe-americas-solid" d="M511.964 960c-282.789 0-512.036-229.246-512.036-512.036s229.246-512.036 512.036-512.036c282.789 0 512.036 229.246 512.036 512.036v0c-0.283 282.675-229.36 511.752-512.009 512.036h-0.027zM511.964 881.232c13.299 0 26.398-0.768 39.413-1.963v-37.393h78.768v22.615c98.074-28.581 179.586-87.979 235.467-166.824l0.909-1.351v-130.157l39.427-78.768v-39.427h39.413c0-14.422-0.768-28.702-2.176-42.783-0.356-3.783-1.124-7.425-1.536-11.137-1.337-10.369-2.66-20.652-4.765-30.736-0.768-3.783-1.749-7.496-2.589-11.279-2.304-9.956-4.765-19.912-7.695-29.684-1.053-3.357-2.247-6.656-3.286-9.956q-4.879-15.005-10.852-29.613c-1.195-2.845-2.446-5.604-3.712-8.406-4.409-9.956-9.032-19.912-14.138-29.542-1.195-2.375-2.518-4.623-3.854-6.856-13.335-23.846-27.354-44.365-42.977-63.524l0.621 0.785-3.57-4.338c-7.638-9.174-15.759-17.992-24.080-26.469-1.195-1.195-2.375-2.589-3.641-3.783q-12.801-12.701-26.683-24.293c-1.337-1.124-2.375-2.247-3.712-3.286-9.245-7.567-18.903-14.565-28.702-21.335-1.536-1.053-2.944-2.304-4.48-3.286-9.53-6.344-19.287-12.132-29.243-17.722-43.979-25.2-95.411-43.227-150.155-50.941l-2.276-0.263 157.963 119.105 43.338 43.338 53.849 108.594v39.356l-78.768 39.427h-39.384l-78.768 78.768h-78.768l-39.413-39.413v-39.427l-39.37-39.427v-78.768l78.768-63.009-77.915-171.39c-222.030 20.297-394.605 205.589-394.605 431.188 0 134.146 61.019 254.041 156.814 333.443l0.718 0.578v-18.775l-39.427-39.427v-86.676l39.427-149.628 196.963-78.768h39.413v39.427l-118.209 39.427v78.754h118.195l39.413 98.439 78.626 59.026v39.427l-118.181 78.768-56.637 28.29c28.828 6.938 61.95 10.966 95.997 11.066h0.067zM472.538 526.733v-39.413h78.768v39.413h-78.768z" />
<glyph unicode="&#xe90e;" glyph-name="close" d="M118.68 941.623c-12.199 11.434-28.653 18.456-46.747 18.456-37.792 0-68.429-30.637-68.429-68.429 0-18.094 7.023-34.548 18.491-46.784l-0.035 0.037 395.169-395.24-395.354-395.169c-13.359-12.52-21.682-30.274-21.682-49.973 0-37.792 30.637-68.429 68.429-68.429 19.698 0 37.453 8.323 49.938 21.645l0.035 0.037 395.411 395.169 395.098-395.169c12.199-11.434 28.653-18.456 46.747-18.456 37.792 0 68.429 30.637 68.429 68.429 0 18.094-7.023 34.548-18.491 46.784l0.035-0.037-395.169 395.169 395.169 395.155c11.434 12.199 18.456 28.653 18.456 46.747 0 37.792-30.637 68.429-68.429 68.429-18.094 0-34.548-7.023-46.784-18.491l0.037 0.035-395.169-395.169-395.155 395.354z" />
<glyph unicode="&#xe90f;" glyph-name="checkbox-unchecked" d="M896 960h-768c-70.608-0.21-127.79-57.392-128-127.98v-768.020c0.21-70.608 57.392-127.79 127.98-128h768.020c70.608 0.21 127.79 57.392 128 127.98v768.020c-0.21 70.608-57.392 127.79-127.98 128h-0.020zM896 64h-768v768h768z" />
<glyph unicode="&#xe910;" glyph-name="map-marker-solid" horiz-adv-x="715" d="M665.998 784.043c-63.807 105.829-178.137 175.513-308.743 175.513s-244.937-69.684-307.84-173.901l-0.903-1.612c-30.443-50.269-48.457-111.010-48.457-175.957s18.015-125.688 49.32-177.496l-0.863 1.539 282.027-480.996c5.588-9.064 15.461-15.015 26.724-15.015s21.136 5.951 26.646 14.88l0.077 0.135 282.027 480.996c30.443 50.269 48.457 111.010 48.457 175.957s-18.015 125.688-49.32 177.496l0.863-1.539zM356.836 488.050c-89.79 0.235-162.489 73.078-162.489 162.901 0 89.968 72.933 162.901 162.901 162.901s162.901-72.933 162.901-162.901c0-89.823-72.699-162.666-162.467-162.901h-0.022zM356.85 742.101v0c-52.054-1.382-93.724-43.908-93.724-96.167 0-53.129 43.070-96.199 96.199-96.199 53.118 0 96.181 43.052 96.199 96.166v0.002c-0.926 53.328-44.373 96.203-97.835 96.203-0.295 0-0.59-0.001-0.884-0.004h0.045z" />
<glyph unicode="&#xe911;" glyph-name="warning" horiz-adv-x="1151" d="M1112.419 264.001l-346.097 576.967c-45.432 75.71-114.939 119.032-190.825 119.032s-145.377-43.322-190.825-118.92l-346.145-577.079c-46.024-76.653-51.059-158.389-13.764-224.268s109.952-103.749 199.426-103.749h702.617c89.522 0 162.194 37.823 199.426 103.701s32.26 147.615-13.812 224.316zM575.448 138.063c-50.121 0-90.753 40.631-90.753 90.753s40.631 90.753 90.753 90.753c50.121 0 90.753-40.631 90.753-90.753 0-0.022 0-0.045 0-0.067v0.004c-0.1-50.051-40.652-90.598-90.696-90.689h-0.009zM671.061 572.755c-0.639-1.822-82.024-203.022-82.024-203.022-2.217-5.4-7.434-9.134-13.524-9.134s-11.308 3.734-13.489 9.037l-0.035 0.097-81.401 201.248c-4.71 11.349-7.475 24.525-7.545 38.339v0.028c0.046 56.523 45.877 102.326 102.406 102.326 56.557 0 102.406-45.849 102.406-102.406 0-13.126-2.47-25.676-6.97-37.209l0.239 0.697z" />
<glyph unicode="&#xe912;" glyph-name="linkedin-square" d="M158.013 102.661h153.988v462.676h-153.988zM322.014 707.975c0.002 0.219 0.003 0.478 0.003 0.737 0 22.211-9.197 42.274-23.99 56.588l-0.021 0.021c-15.165 14.108-35.566 22.766-57.988 22.766-1.415 0-2.821-0.034-4.219-0.103l0.197 0.008c-1.095 0.048-2.38 0.076-3.67 0.076-22.85 0-43.683-8.634-59.415-22.817l0.079 0.070c-14.988-13.74-24.35-33.407-24.35-55.261 0-0.733 0.011-1.463 0.031-2.191l-0.002 0.107c-0.013-0.517-0.020-1.127-0.020-1.738 0-21.73 9.081-41.338 23.656-55.238l0.030-0.029c15.117-14.281 35.564-23.061 58.062-23.061 1.269 0 2.531 0.028 3.786 0.083l-0.179-0.006h0.668c1.201-0.059 2.609-0.092 4.024-0.092 22.907 0 43.763 8.781 59.385 23.161l-0.062-0.056c14.803 13.868 24.026 33.537 24.026 55.36 0 0.578-0.006 1.155-0.019 1.73l0.002-0.086zM712.027 102.661h153.988v265.323q0 102.659-48.67 155.339c-30.523 32.537-73.789 52.807-121.79 52.807-2.411 0-4.809-0.051-7.195-0.152l0.341 0.011c-1.432 0.047-3.115 0.074-4.804 0.074-57.306 0-107.349-31.093-134.18-77.329l-0.398-0.743h1.337v67.344h-154.002q1.991-44.005 0-462.676h154.002v258.667c-0.078 1.551-0.122 3.367-0.122 5.194 0 11.472 1.75 22.535 4.998 32.937l-0.21-0.782c6.901 15.884 17.106 29.191 29.82 39.532l0.189 0.149c12.728 10.199 29.070 16.368 46.852 16.368 0.869 0 1.735-0.015 2.598-0.044l-0.125 0.003q77.343 0 77.343-104.678v-247.331zM1024.028 767.995v-640.018c-0.162-105.977-86.029-191.844-191.99-192.005h-640.034c-0.818-0.013-1.783-0.020-2.75-0.020-52.149 0-99.259 21.578-132.887 56.293l-0.047 0.049c-34.763 33.644-56.343 80.727-56.343 132.851 0 0.996 0.008 1.99 0.024 2.983l-0.002-0.15v640.018c-0.013 0.818-0.020 1.783-0.020 2.75 0 52.149 21.578 99.259 56.293 132.887l0.049 0.047c33.644 34.763 80.727 56.343 132.851 56.343 0.996 0 1.99-0.008 2.983-0.024l-0.15 0.002h640.018c0.818 0.013 1.783 0.020 2.75 0.020 52.149 0 99.259-21.578 132.887-56.293l0.047-0.049c34.763-33.644 56.343-80.727 56.343-132.851 0-0.996-0.008-1.99-0.024-2.983l0.002 0.15z" />
<glyph unicode="&#xe913;" glyph-name="chevron-right" horiz-adv-x="577" d="M65.226 943.032c17.050-0.081 32.392-7.323 43.188-18.869l0.031-0.034 437.622-437.65c11.563-10.811 18.8-26.126 18.902-43.131v-0.019c-0.387-17.851-7.515-33.965-18.93-45.962l0.027 0.029-437.622-437.65c-11.371-11.672-27.241-18.912-44.803-18.912-0.393 0-0.784 0.004-1.175 0.011l0.059-0.001c-0.631-0.026-1.372-0.041-2.117-0.041-16.418 0-31.127 7.319-41.042 18.872l-0.061 0.072c-10.222 11.654-17.067 26.502-18.871 42.868l-0.031 0.352c-0.142 1.39-0.222 3.004-0.222 4.637 0 15.688 7.452 29.636 19.009 38.497l0.116 0.085 394.389 394.361-394.389 394.431c-11.672 11.371-18.913 27.242-18.913 44.803 0 0.397 0.004 0.794 0.011 1.19l-0.001-0.059c-0.026 0.631-0.041 1.372-0.041 2.117 0 16.418 7.319 31.127 18.872 41.042l0.072 0.061c12.273 10.846 28.191 17.822 45.705 18.892l0.215 0.010z" />
<glyph unicode="&#xe914;" glyph-name="star-outline" horiz-adv-x="1071" d="M535.737 909.568l149.988-303.872 335.289-48.768-242.631-236.516 57.273-333.98-299.918 157.696-299.918-157.696 57.273 333.98-242.631 236.516 335.289 48.768 149.988 303.872zM535.737 960c-19.74-0.003-36.829-11.346-45.109-27.869l-0.132-0.291-138.183-280.036-309.134-45.312c-24.531-3.695-43.121-24.626-43.121-49.899 0-14.126 5.808-26.895 15.166-36.051l0.009-0.009 223.701-217.7-52.821-307.826c-0.458-2.553-0.72-5.491-0.72-8.49 0-27.853 22.579-50.432 50.432-50.432 8.557 0 16.616 2.131 23.676 5.892l-0.272-0.132 276.508 145.294 276.494-145.308c6.801-3.65 14.881-5.795 23.461-5.795 27.829 0 50.389 22.56 50.389 50.389 0 3.027-0.267 5.992-0.779 8.872l0.045-0.304-52.807 307.84 223.687 217.998c9.209 9.14 14.909 21.804 14.909 35.799 0 25.184-18.46 46.057-42.586 49.825l-0.284 0.037-309.12 44.885-138.169 280.448c-8.408 16.82-25.499 28.169-45.24 28.174h-0.001z" />
<glyph unicode="&#xe915;" glyph-name="youtube-play" horiz-adv-x="1456" d="M577.832 259.445l393.333 203.17-393.333 205.617v-408.787zM728.207 960q136.539 0 263.712-3.641t186.482-7.727l59.349-3.236q0.809 0 13.836-1.214c7.128-0.539 13.545-1.385 19.846-2.56l-1.115 0.173q5.664-1.214 19.095-3.641c8.748-1.488 16.535-3.751 23.925-6.784l-0.744 0.27q9.75-4.046 22.777-10.559c9.612-4.851 17.871-10.122 25.541-16.112l-0.337 0.254c8.661-6.754 16.365-13.804 23.482-21.41l0.104-0.112c4.354-4.569 8.479-9.477 12.287-14.632l0.295-0.418c8.605-13.577 16.533-29.233 22.939-45.652l0.647-1.884c10.277-23.899 17.849-51.631 21.376-80.611l0.146-1.474q6.513-52.026 10.114-110.93t4.45-92.341v-143.052c0.023-3.332 0.037-7.271 0.037-11.214 0-79.174-5.35-157.099-15.709-233.432l0.987 8.889c-3.588-30.034-10.701-57.38-21.003-83.104l0.775 2.192c-6.887-19.068-15.673-35.579-26.433-50.578l0.419 0.615-11.368-13.836c-7.201-7.751-14.907-14.803-23.15-21.197l-0.436-0.325c-7.32-5.695-15.59-10.844-24.377-15.093l-0.827-0.361q-12.986-6.068-22.777-10.114c-6.626-2.723-14.41-4.984-22.482-6.411l-0.699-0.102q-13.391-2.468-19.5-3.641t-18.691-2.427-13.391-1.214q-204.141-15.373-509.583-15.373-168.216 1.618-292.152 5.3t-162.916 6.068l-39.849 3.277-29.25 3.236c-17.191 2.119-32.227 4.957-46.924 8.65l2.625-0.559c-16.064 5.042-29.79 10.832-42.838 17.734l1.371-0.661c-17.786 8.743-32.97 19.906-45.87 33.286l-0.047 0.049c-4.354 4.569-8.479 9.477-12.287 14.632l-0.295 0.418c-8.605 13.577-16.533 29.233-22.939 45.652l-0.647 1.884c-10.281 23.912-17.854 51.658-21.377 80.653l-0.146 1.472q-6.574 52.026-10.154 110.91t-4.511 92.239v143.052c-0.024 3.353-0.037 7.316-0.037 11.283 0 79.121 5.343 156.995 15.688 233.279l-0.986-8.887c3.588 30.034 10.701 57.38 21.003 83.104l-0.775-2.192c6.916 19.053 15.727 35.549 26.511 50.531l-0.417-0.609 11.368 13.836c7.201 7.751 14.908 14.803 23.15 21.197l0.436 0.325c7.319 5.685 15.561 10.953 24.271 15.441l0.892 0.418q12.946 6.513 22.777 10.559c6.621 2.715 14.405 4.975 22.474 6.409l0.708 0.104q13.35 2.468 19.095 3.641t18.691 2.427 13.836 1.214q203.959 14.645 509.522 14.645z" />
<glyph unicode="&#xe916;" glyph-name="chevron-up" horiz-adv-x="1817" d="M30.104 51.699c0.144 30.25 12.992 57.47 33.476 76.624l0.060 0.056 776.477 776.427c19.182 20.516 46.352 33.356 76.523 33.536h0.033c31.67-0.686 60.26-13.333 81.546-33.585l-0.051 0.048 776.477-776.427c20.708-20.174 33.554-48.332 33.554-79.49 0-0.697-0.006-1.392-0.019-2.085l0.002 0.104c0.047-1.12 0.074-2.435 0.074-3.755 0-29.129-12.985-55.225-33.482-72.817l-0.128-0.108c-20.676-18.136-47.019-30.28-76.056-33.481l-0.624-0.056c-2.466-0.251-5.33-0.394-8.227-0.394-27.834 0-52.581 13.221-68.302 33.726l-0.151 0.205-699.674 699.723-699.797-699.723c-20.174-20.709-48.332-33.555-79.49-33.555-0.705 0-1.409 0.007-2.11 0.020l0.105-0.002c-1.12-0.047-2.435-0.074-3.755-0.074-29.129 0-55.225 12.985-72.817 33.482l-0.108 0.128c-19.242 21.775-31.62 50.017-33.518 81.090l-0.019 0.381z" />
<glyph unicode="&#xe917;" glyph-name="exclamationsign" d="M512-64c-0.459-0.001-1.003-0.002-1.547-0.002-187.856 0-352.011 101.476-440.641 252.602l-1.303 2.405c-43.068 72.593-68.521 160.024-68.521 253.4 0 1.264 0.005 2.527 0.014 3.789l-0.001-0.194c-0.001 0.459-0.002 1.003-0.002 1.547 0 187.856 101.476 352.011 252.602 440.641l2.405 1.303c72.593 43.068 160.024 68.521 253.4 68.521 1.264 0 2.527-0.005 3.789-0.014l-0.194 0.001c0.459 0.001 1.003 0.002 1.547 0.002 187.856 0 352.011-101.476 440.641-252.602l1.303-2.405c43.068-72.593 68.521-160.024 68.521-253.4 0-1.264-0.005-2.527-0.014-3.789l0.001 0.194c0.001-0.459 0.002-1.003 0.002-1.547 0-187.856-101.476-352.011-252.602-440.641l-2.405-1.303c-72.595-43.068-160.027-68.521-253.404-68.521-1.263 0-2.525 0.005-3.786 0.014l0.194-0.001zM512 128c34.513 0.482 62.307 28.573 62.307 63.155 0 34.883-28.278 63.161-63.161 63.161s-63.161-28.278-63.161-63.161c0-17.444 7.071-33.236 18.504-44.666v0c11.23-11.425 26.849-18.505 44.121-18.505 0.489 0 0.976 0.006 1.462 0.017l-0.072-0.001zM512 768c-70.692 0-128-57.308-128-128v0l64-256c-0.008-0.375-0.013-0.817-0.013-1.26 0-17.408 7.292-33.112 18.988-44.226l0.026-0.025c11.555-11.426 27.449-18.484 44.992-18.484s33.437 7.058 44.998 18.49l-0.006-0.006c11.73 11.139 19.028 26.85 19.028 44.264 0 0.438-0.005 0.876-0.014 1.312l0.001-0.065 64 256c0 70.692-57.308 128-128 128v0z" />
<glyph unicode="&#xe918;" glyph-name="chevron-down" horiz-adv-x="1817" d="M1786.672 844.277c-0.144-30.25-12.992-57.47-33.476-76.624l-0.060-0.056-776.477-776.427c-19.182-20.516-46.352-33.356-76.523-33.536h-0.033c-31.67 0.686-60.26 13.333-81.546 33.585l0.051-0.048-776.477 776.427c-20.708 20.174-33.554 48.332-33.554 79.49 0 0.697 0.006 1.392 0.019 2.085l-0.002-0.104c-0.047 1.12-0.074 2.435-0.074 3.755 0 29.129 12.985 55.225 33.482 72.817l0.128 0.108c20.676 18.136 47.019 30.28 76.056 33.481l0.624 0.056c2.466 0.251 5.33 0.394 8.227 0.394 27.834 0 52.581-13.221 68.302-33.726l0.151-0.205 699.674-699.723 699.797 699.723c20.174 20.709 48.332 33.555 79.49 33.555 0.705 0 1.409-0.007 2.11-0.020l-0.105 0.002c1.12 0.047 2.435 0.074 3.755 0.074 29.129 0 55.225-12.985 72.817-33.482l0.108-0.128c19.242-21.775 31.62-50.017 33.518-81.090l0.019-0.381z" />
<glyph unicode="&#xe919;" glyph-name="arrow" horiz-adv-x="1051" d="M67.409 380.57h753.227l-329.104-329.104c-12.193-12.277-19.729-29.192-19.729-47.868s7.536-35.591 19.733-47.871l-0.004 0.004c12.155-12.19 28.966-19.733 47.539-19.733s35.384 7.542 47.538 19.731l444.426 444.426c12.19 12.155 19.733 28.966 19.733 47.539s-7.542 35.384-19.731 47.538l-0.002 0.002-443.65 445.11c-12.121 11.904-28.751 19.252-47.097 19.252-37.132 0-67.233-30.101-67.233-67.233 0-18.346 7.348-34.976 19.262-47.107l-0.010 0.010 328.359-329.819h-753.257c-37.229 0-67.409-30.18-67.409-67.409s30.18-67.409 67.409-67.409v0z" />
<glyph unicode="&#xe91a;" glyph-name="round-close" horiz-adv-x="1195" d="M0 874.674c0 47.124 38.202 85.326 85.326 85.326 0.006 0 0.012 0 0.017 0h1023.999c47.129 0 85.335-38.206 85.335-85.335s-38.206-85.335-85.335-85.335v0h-1024c-0.005 0-0.011 0-0.017 0-47.124 0-85.326 38.202-85.326 85.326 0 0.006 0 0.012 0 0.017v-0.001zM0 448.008c0 47.124 38.202 85.326 85.326 85.326 0.006 0 0.012 0 0.017 0h1023.999c47.129 0 85.335-38.206 85.335-85.335s-38.206-85.335-85.335-85.335v0h-1024c-0.005 0-0.011 0-0.017 0-47.124 0-85.326 38.202-85.326 85.326 0 0.006 0 0.012 0 0.017v-0.001zM0 21.343c0 47.124 38.202 85.326 85.326 85.326 0.006 0 0.012 0 0.017 0h1023.999c47.129 0 85.335-38.206 85.335-85.335s-38.206-85.335-85.335-85.335v0h-1024c-0.005 0-0.011 0-0.017 0-47.124 0-85.326 38.202-85.326 85.326v0z" />
<glyph unicode="&#xe91b;" glyph-name="search" d="M383.973 831.952c-141.375 0-255.982-114.607-255.982-255.982s114.607-255.982 255.982-255.982c141.375 0 255.982 114.607 255.982 255.982v0c0 141.375-114.607 255.982-255.982 255.982v0zM0 575.97c0 0.006 0 0.013 0 0.021 0 212.063 171.911 383.973 383.973 383.973s383.973-171.911 383.973-383.973c0-83.441-26.615-160.666-71.82-223.647l0.785 1.15 308.259-308.259c12.054-11.653 19.537-27.968 19.537-46.031 0-35.344-28.652-63.996-63.996-63.996-18.063 0-34.378 7.483-46.014 19.519l-0.017 0.018-308.203 308.217c-61.833-44.423-139.061-71.041-222.505-71.041-212.063 0-383.973 171.911-383.973 383.973 0 0.027 0 0.054 0 0.081v-0.004z" />
<glyph unicode="&#xe91c;" glyph-name="user" d="M512 960c-282.77 0-512-229.23-512-512s229.23-512 512-512c282.77 0 512 229.23 512 512v0c0 282.77-229.23 512-512 512v0zM512 777.145c90.512-0.225 163.799-73.652 163.799-164.195 0-90.683-73.513-164.196-164.196-164.196s-164.196 73.513-164.196 164.196c0 45.344 18.381 86.396 48.098 116.11v0c29.773 29.712 70.872 48.085 116.262 48.085 0.082 0 0.163 0 0.244 0h-0.013zM804.565 121.785c-77.066-69.869-179.825-112.637-292.572-112.637s-215.507 42.767-292.94 112.965l0.367-0.328v21.191c-0.047 1.575-0.073 3.427-0.073 5.286 0 102.485 81.072 186.036 182.581 190.017l0.362 0.011h219.42c101.894-4.24 182.893-87.872 182.893-190.423 0-1.33-0.014-2.656-0.041-3.979l0.003 0.198z" />
<glyph unicode="&#xe947;" glyph-name="location" d="M512 960c-176.732 0-320-143.268-320-320 0-320 320-704 320-704s320 384 320 704c0 176.732-143.27 320-320 320zM512 448c-106.040 0-192 85.96-192 192s85.96 192 192 192 192-85.96 192-192-85.96-192-192-192z" />
<glyph unicode="&#xe94c;" glyph-name="map2" d="M672 768l-320 128-352-128v-768l352 128 320-128 352 128v768l-352-128zM384 814.27l256-102.4v-630.138l-256 102.398v630.14zM64 723.172l256 93.090v-631.8l-256-93.088v631.798zM960 172.828l-256-93.092v631.8l256 93.090v-631.798z" />
<glyph unicode="&#xe9bb;" glyph-name="list2" d="M384 896h640v-128h-640v128zM384 512h640v-128h-640v128zM384 128h640v-128h-640v128zM0 832c0 70.692 57.308 128 128 128s128-57.308 128-128c0-70.692-57.308-128-128-128s-128 57.308-128 128zM0 448c0 70.692 57.308 128 128 128s128-57.308 128-128c0-70.692-57.308-128-128-128s-128 57.308-128 128zM0 64c0 70.692 57.308 128 128 128s128-57.308 128-128c0-70.692-57.308-128-128-128s-128 57.308-128 128z" />
<glyph unicode="&#xe9d7;" glyph-name="star-empty" d="M1024 562.95l-353.78 51.408-158.22 320.582-158.216-320.582-353.784-51.408 256-249.538-60.432-352.352 316.432 166.358 316.432-166.358-60.434 352.352 256.002 249.538zM512 206.502l-223.462-117.48 42.676 248.83-180.786 176.222 249.84 36.304 111.732 226.396 111.736-226.396 249.836-36.304-180.788-176.222 42.678-248.83-223.462 117.48z" />
<glyph unicode="&#xe9d8;" glyph-name="star-half" d="M1024 562.95l-353.78 51.408-158.22 320.582-158.216-320.582-353.784-51.408 256-249.538-60.432-352.352 316.432 166.358 316.432-166.358-60.434 352.352 256.002 249.538zM512 206.502l-0.942-0.496 0.942 570.768 111.736-226.396 249.836-36.304-180.788-176.222 42.678-248.83-223.462 117.48z" />
<glyph unicode="&#xe9d9;" glyph-name="star-full" d="M1024 562.95l-353.78 51.408-158.22 320.582-158.216-320.582-353.784-51.408 256-249.538-60.432-352.352 316.432 166.358 316.432-166.358-60.434 352.352 256.002 249.538z" />
<glyph unicode="&#xf081;" glyph-name="twitter-square" horiz-adv-x="878" d="M731.429 602.286c-21.714-9.714-44.571-16-69.143-19.429 25.143 14.857 44 38.857 53.143 66.857-23.429-13.714-49.143-24-76.571-29.143-21.714 23.429-53.143 37.714-87.429 37.714-66.286 0-120-53.714-120-120 0-9.143 0.571-18.857 2.857-27.429-100 5.143-188.571 52.571-248 125.714-10.286-17.714-16.571-38.857-16.571-60.571 0-41.714 19.429-78.286 52-100-20 0.571-38.857 6.286-57.143 14.857v-1.143c0-58.286 44-106.857 98.857-117.714-10.286-2.857-18.286-4.571-29.143-4.571-7.429 0-14.857 1.143-22.286 2.286 15.429-47.429 59.429-82.286 112-83.429-41.143-32-92.571-51.429-149.143-51.429-9.714 0-19.429 0.571-28.571 1.714 53.143-33.714 116-53.714 184-53.714 220.571 0 341.714 182.857 341.714 341.714 0 5.143 0 10.286-0.571 15.429 23.429 16.571 44 37.714 60 62.286zM877.714 713.143v-548.571c0-90.857-73.714-164.571-164.571-164.571h-548.571c-90.857 0-164.571 73.714-164.571 164.571v548.571c0 90.857 73.714 164.571 164.571 164.571h548.571c90.857 0 164.571-73.714 164.571-164.571z" />
</font>
</defs>
</svg>
